#TITLE:给天使看的戏;
#SUBTITLE:;
#ARTIST:谢霆锋;
#TITLETRANSLIT:;
#SUBTITLETRANSLIT:;
#ARTISTTRANSLIT:;
#CREDIT:;
#BANNER:ʹϷ-logo.jpg;
#BACKGROUND:ʹϷ.jpg;
#LYRICSPATH:;
#CDTITLE:Lan.png;
#MUSIC:ʹϷ.mp3;
#OFFSET:0.000;
#SAMPLESTART:100.000;
#SAMPLELENGTH:12.000;
#SELECTABLE:YES;
#BPMS:0.000=92.000,148.000=184.000,208.000=138.000;
#STOPS:;
#BGCHANGES:;
// cache tags:
#FIRSTBEAT:3.000;
#LASTBEAT:217.000;
#SONGFILENAME:Songs/Super Dancer Online/ʹϷ/ʹϷ.sm;
#HASMUSIC:1;
#HASBANNER:1;
#MUSICLENGTH:122.294;
// end cache tags

//---------------dance-single - 标准----------------
#NOTES:
     dance-single:
     标准:
     Hard:
     7:
     0.478,0.555,0.499,0.221,0.016,321.000,61.000,27.000,0.000,4.000:


0000
0000
0000
0000
0000
0000
1000
0010
,
0101
0010
1000
1000
0110
0001
1000
0010
,
1001
0010
1000
0010
0001
0010
1000
0010
,
0101
1000
0001
0100
0001
0100
1000
0010
,
0101
1000
0001
0010
1000
0010
0100
0001
,
0110
1000
0001
0100
0101
1000
0010
0001
,
0010
1000
0010
1000
0101
0010
1000
0010
,
0101
1000
0010
0100
0001
0010
1000
0100
,
0001
0010
0100
0001
1000
0100
1000
0000
,
1001
0000
0101
0011
1001
0100
0010
0100
,
0001
1000
0100
0010
0001
0000
0011
0110
,
1100
0000
0101
0011
1001
0100
0010
0100
,
1000
0001
0010
0100
1000
0000
0110
0011
,
1100
0000
0011
1100
0011
1000
0100
1000
,
0010
0100
0010
0100
0010
0000
1100
0110
,
0101
0000
0110
1001
0110
1000
0100
1000
,
0001
1000
0001
0100
0010
0000
0000
0000
,
2000
0000
0100
0010
0100
0000
0100
0010
,
3100
0001
1000
0100
0001
0000
0110
0011
,
1100
0000
0011
1100
0011
1000
0100
1000
,
0010
0100
0010
0100
0010
0000
1000
0000
,
2000
0000
0100
0010
0100
0000
0100
0010
,
3100
0001
1000
0100
0001
0000
0110
0011
,
1100
0000
0011
1100
0011
1010
0110
1100
,
0011
0110
1010
1100
0011
0000
1000
0000
,
1000
0100
0010
0001
0010
1000
0100
0010
,
0001
1000
0010
0100
1000
0001
0100
0010
,
0100
1000
0001
0000
1000
0100
0010
0001
,
1000
0010
0001
1000
0010
0100
0001
0100
,
1000
0100
0010
0001
0010
1000
0100
0010
,
0001
1000
0010
0100
1000
0001
0100
0010
,
0100
1000
0001
0010
1000
0100
0010
0001
,
1000
0010
0001
1000
0010
0100
0001
0100
,
1000
0001
0010
1000
0100
1000
0001
1100
,
1100
0010
0001
0010
1100
0010
0001
0010
,
1100
1000
0001
0010
1000
0100
0010
0001
,
1000
0000
0010
0000
0001
0000
1000
0000
0100
0001
0100
0001
0100
0001
0100
0001
,
2100
0000
3200
0000
,
2300
0000
3200
0000
,
2300
0000
3201
0000
,
0302
0000
0203
0000
,
2300
0000
3201
0000
,
0320
0000
0032
0000
,
2003
0000
3021
0000
,
2030
0000
3102
0000
,
2003
0000
3001
0001
,
2000
0000
0000
0000
3000
0001
0100
0002
,
0000
0000
2003
0000
,
3002
0000
0000
0000
,
2003
0000
0000
0000
,
3002
0000
0203
0000
,
0302
0000
0010
1000
0010
1000
0010
0000
,
1003
0000
0000
0010
0100
1000
0010
0001
,
1000
0100
0001
0010
0100
1000
0010
0001
,
0010
0100
1001
0000
0000
0000
0000
0000
;
